Filecrypt zeigt vereinzelt Files als "n/a". Die Downloads sind trotzdem komplett.

DNS SERVER AENDERNum der staatlichen Zensur zu umgehen. Sollten wir von eurem Provider geseprrt werden, nutzt den TOR BROWSER oder ändert euren DNS SERVER.

Filmwünsche können bei uns im Forum abgegeben werden

Wir Speichern Nicht




 
 
 
Top Releases
Deine.Juliet.2018.German.DTS...
Deine.Juliet.2018.MULTi.COMP...
Ideal.Home.Ein.Vater.kommt.s...
Ideal.Home.Ein.Vater.kommt.s...
Cam.2018.German.AC3.DL.1080p...
Die.Frau.die.vorausgeht.Germ...
Die.Frau.die.vorausgeht.Germ...
Deine.Juliet.2018.German.DL....
Deine.Juliet.2018.German.720...
Die.Frau.die.vorausgeht.2017...

Cinedubs
I.Still.See.You.Sie.lassen.d...
I.Still.See.You.Sie.lassen.d...
Braven.2018.German.AC3D.DL.1...
Braven.2018.German.AC3D.DL.7...
Smallfoot.Ein.eisigartiges.A...
Smallfoot.Ein.eisigartiges.A...
Halloween.German.DL.AC3.Dubb...
Halloween.German.DL.AC3.Dubb...
Freaky.Friday.German.DL.AC3....
Freaky.Friday.German.DL.AC3....

Neuerscheinungen 2017-18
Robin.Hood.Ein.Leben.fuer.Ri...
Robert.3.The.Toymaker.2017.C...
Robert.3.The.Toymaker.2017.G...
Robert.3.The.Toymaker.2017.G...
Scorpion.King.5.Das.Buch.der...
The.Scorpion.King.5.Das.Buch...
Scorpion.King.5.Das.Buch.der...
Event.Horizon.REMASTERED.199...
Sicario.2.Soldado.2018.Germa...
Ouija.Seance.The.Final.Game....

XXX
Twistys.18.11.26.Eliza.Ibarr...
Spizoo.18.11.26.Daisy.Stone....
RKPrime.18.11.26.Karmen.Karm...
SweetheartVideo.18.11.26.Sov...
Submissived.18.11.26.Jezebet...
TheLifeErotic.18.11.25.Liz.R...
Pure18.18.11.26.Athena.Palom...
PublicDisgrace.18.11.26.Hadl...
WankItNow.18.11.26.Natalia.F...
PureMature.18.11.26.Natasha....
VIPissy.18.11.26.Isabella.Ch...
ThirdMovies.Gangbangin.The.T...
TeensDoPorn.18.11.26.Bambi.B...
SugarCookie.18.08.31.Mary.Ka...
WankItNow.18.11.26.Ashley.Ri...
WankItNow.18.11.25.Kayla.Lou...
PlayboyPlus.18.11.26.Bianka....
LaurenPhillips.15.08.03.POV....
GirlsWay.18.11.26.Lyra.Law.A...
LaurenPhillips.15.09.05.Bend...

3D
The.Art.of.Flight.3D.2011.Ge...
The.End.Of.The.World.3D.2010...
The.First.Avenger.Civil.War....
Die.Unglaublichen.2.2018.3D....
Skyscraper.3D.2018.MULTi.COM...
Ant-Man.And.The.Wasp.3D.2018...
Ant.Man.and.the.Wasp.3D.2018...
Die.Unglaublichen.2.3D.2018....
Die.Unglaublichen.2.2018.3D....
Die.Unglaublichen.2.2018.3D....
Sharknado.6.The.Last.One.3D....
Deep.Kleine.Helden.der.Tiefs...
Deep.3D.2017.MULTI.COMPLETE....
Detective.Dee.und.die.Legend...
Detective.Dee.und.die.Legend...

Old_Stuff
Akte.X.S04.German.DTS.DL.108...
Akte.X.S03.German.DTS.DL.108...
Dunkirk.1958.COMPLETE.BLURAY...
Das.Wunder.von.Manhattan.199...
The.Amazing.Spiderman.2.Rise...
Rise.of.the.Predator.2014.Ge...
Detective.Dee.und.das.Geheim...
Detective.Dee.Und.Der.Fluch....
Ghost.Rider.Spirit.of.Vengea...
Species.IV.Das.Erwachen.2007...
Species.IV.Das.Erwachen.2007...
Hotel.Transsilvanien.2012.Ge...
The.Dead.2010.German.DL.1080...
The.Dead.2.India.2013.German...
Britney.Spears.Live.The.Femm...

Filme
Der.sechs.Millionen.Dollar.M...
Ideal.Home.2018.German.720p....
Ideal.Home.2018.German.DL.10...
Hotel.Artemis.2018.German.DL...
Hotel.Artemis.2018.German.DL...
Last.Knights.Die.Ritter.des....
Under.Supicion.Moerderisches...
Die.Liebe.in.mir.2007.German...
Kuess.den.Frosch.2009.German...
Versailles.S01-S03.COMPLETE....
Marvels.Inhumans.S01.German....
Marvels.Inhumans.S01.German....
Black.Lightning.S02.GERMAN.D...
Black.Lightning.S02.GERMAN.D...
68.Kill.2017.German.DL.1080p...
Beyond.Skyline.2017.German.D...
Edge.of.Tomorrow.2014.German...
Hotel.Artemis.2018.German.DT...
Hotel.Transsilvanien.3.Ein.M...
Dead.in.a.Week.Oder.Geld.zur...
Boarding.School.2018.German....
Twilight.Biss.zum.Morgengrau...
Jaeger.der.Apokalypse.1980.G...
The.Mermaid.Lake.of.the.Dead...

 
 
Deine.Juliet.2018.German.DTS.DL.1080p.BluRay.x265-UNFIrED

Jahr: 2018
Genre: Drama
Sprache: Deutsch DTS | Englisch DTS
Laufzeit: 2h 3mn
Bitrate: 5 492 Kbps
Format: MKV
Größe: 4.75 GiB
Release:

Beschreibung:

London in den späten vierziger Jahren. Die junge Schriftstellerin Juliet Ashton (Lily James) erhält eines Tages einen außergewöhnlichen Brief. Der literaturbegeisterte Farmer Dawsey Adams (Michiel Huisman) lebt auf der abgelegenen Kanalinsel Guernsey und ist auf der Suche nach einem besonderen Buch, wofür er Juliet um Hilfe bittet. Juliet ist sofort angetan von Dawseys Brief. Umso mehr, als sie erfährt, dass er zusammen mit einigen Bewohnern von Guernsey den Literaturverein „Guernseyer Freunde von Dichtung und Kartoffelschalenauflauf“ gegründet hat. Dessen liebenswerte und teils exzentrische Mitglieder halfen sich damit über die Zeit während des 2.Weltkriegs hinweg. Juliet beschließt kurzerhand, nach Guernsey zu reisen und über den Buch-Club zu schreiben. Auf der Insel angekommen, lässt sie die Geschichte ihrer Bewohner schon bald nicht mehr los. Und bereits im Moment der ersten Begegnung mit Dawsey wird klar, dass Juliet eine Reise begonnen hat, die ihr Leben für immer verändern wird.



Complete name                            : unfired-juliet-x265.mkv
Format                                   : Matroska
Format version                           : Version 2
File size                                : 4.75 GiB
Duration                                 : 2h 3mn
Overall bit rate                         : 5 492 Kbps
Encoded date                             : UTC 2018-12-05 02:41:41
Writing application                      : mkvmerge v24.0.0 ('Beyond The Pale') 64-bit
Writing library                          : libebml v1.3.6 + libmatroska v1.4.9
DURATION                                 : 01:59:31.500000000
NUMBER_OF_FRAMES                         : 3322
NUMBER_OF_BYTES                          : 32554067
_STATISTICS_WRITING_APP                  : mkvmerge v24.0.0 ('Beyond The Pale') 64-bit
_STATISTICS_WRITING_DATE_UTC             : 2018-12-05 02:41:41
_STATISTICS_TAGS                         : BPS DURATION NUMBER_OF_FRAMES NUMBER_OF_BYTES

Video
ID                                       : 1
Format                                   : HEVC
Format/Info                              : High Efficiency Video Coding
Format profile                           : [email protected]
Codec ID                                 : V_MPEGH/ISO/HEVC
Duration                                 : 2h 3mn
Bit rate                                 : 2 364 Kbps
Width                                    : 1 920 pixels
Height                                   : 1 036 pixels
Display aspect ratio                     : 1.85:1
Frame rate mode                          : Constant
Frame rate                               : 24.000 fps
Color space                              : YUV
Chroma subsampling                       : 4:2:0
Bit depth                                : 8 bits
Bits/(Pixel*Frame)                       : 0.050
Stream size                              : 2.04 GiB (43%)
Writing library                          : x265 2.8+1-478bfe2b7673:[Windows][GCC 7.3.0][64 bit] 8bit+10bit+12bit
Encoding settings                        : cpuid=1111039 / frame-threads=16 / numa-pools=16 / wpp / no-pmode / no-pme / no-psnr / no-ssim / log-level=2 / input-csp=1 / input-res=1920x1036 / interlace=0 / total-frames=178253 / level-idc=0 / high-tier=1 / uhd-bd=0 / ref=4 / no-allow-non-conformance / no-repeat-headers / annexb / no-aud / no-hrd / info / hash=0 / no-temporal-layers / open-gop / min-keyint=24 / keyint=250 / gop-lookahead=0 / bframes=4 / b-adapt=2 / b-pyramid / bframe-bias=0 / rc-lookahead=25 / lookahead-slices=4 / scenecut=40 / radl=0 / no-intra-refresh / ctu=64 / min-cu-size=8 / rect / no-amp / max-tu-size=32 / tu-inter-depth=1 / tu-intra-depth=1 / limit-tu=0 / rdoq-level=2 / dynamic-rd=0.00 / no-ssim-rd / signhide / no-tskip / nr-intra=0 / nr-inter=0 / no-constrained-intra / strong-intra-smoothing / max-merge=3 / limit-refs=3 / limit-modes / me=3 / subme=3 / merange=57 / temporal-mvp / weightp / no-weightb / no-analyze-src-pics / deblock=0:0 / sao / no-sao-non-deblock / rd=4 / no-early-skip / rskip / no-fast-intra / no-tskip-fast / no-cu-lossless / no-b-intra / no-splitrd-skip / rdpenalty=0 / psy-rd=2.00 / psy-rdoq=1.00 / no-rd-refine / no-lossless / cbqpoffs=0 / crqpoffs=0 / rc=crf / crf=19.9 / qcomp=0.60 / qpstep=4 / stats-write=0 / stats-read=0 / ipratio=1.40 / pbratio=1.30 / aq-mode=1 / aq-strength=1.00 / cutree / zone-count=0 / no-strict-cbr / qg-size=32 / no-rc-grain / qpmax=69 / qpmin=0 / no-const-vbv / sar=1 / overscan=0 / videoformat=5 / range=0 / colorprim=2 / transfer=2 / colormatrix=2 / chromaloc=0 / display-window=0 / max-cll=0,0 / min-luma=0 / max-luma=255 / log2-max-poc-lsb=8 / vui-timing-info / vui-hrd-info / slices=1 / no-opt-qp-pps / no-opt-ref-list-length-pps / no-multi-pass-opt-rps / scenecut-bias=0.05 / no-opt-cu-delta-qp / no-aq-motion / no-hdr / no-hdr-opt / no-dhdr10-opt / no-idr-recovery-sei / analysis-reuse-level=5 / scale-factor=0 / refine-intra=0 / refine-inter=0 / refine-mv=0 / no-limit-sao / ctu-info=0 / no-lowpass-dct / refine-mv-type=0 / copy-pic=1 / max-ausize-factor=1.0 / no-dynamic-refine / no-single-sei
Default                                  : Yes
Forced                                   : No

Audio #1
ID                                       : 2
Format                                   : DTS
Format/Info                              : Digital Theater Systems
Mode                                     : 16
Format settings, Endianness              : Big
Codec ID                                 : A_DTS
Duration                                 : 2h 3mn
Bit rate mode                            : Constant
Bit rate                                 : 1 509 Kbps
Channel(s)                               : 6 channels
Channel positions                        : Front: L C R, Side: L R, LFE
Sampling rate                            : 48.0 KHz
Bit depth                                : 24 bits
Compression mode                         : Lossy
Stream size                              : 1.30 GiB (27%)
Language                                 : German
Default                                  : Yes
Forced                                   : No

Audio #2
ID                                       : 3
Format                                   : DTS
Format/Info                              : Digital Theater Systems
Mode                                     : 16
Format settings, Endianness              : Big
Codec ID                                 : A_DTS
Duration                                 : 2h 3mn
Bit rate mode                            : Constant
Bit rate                                 : 1 509 Kbps
Channel(s)                               : 6 channels
Channel positions                        : Front: L C R, Side: L R, LFE
Sampling rate                            : 48.0 KHz
Bit depth                                : 24 bits
Compression mode                         : Lossy
Stream size                              : 1.30 GiB (27%)
Language                                 : English
Default                                  : No
Forced                                   : No

Text #1
ID                                       : 4
Format                                   : PGS
Muxing mode                              : zlib
Codec ID                                 : S_HDMV/PGS
Codec ID/Info                            : The same subtitle format used on BDs/HD-DVDs
Title                                    : complete
Language                                 : German
Default                                  : No
Forced                                   : No

Text #2
ID                                       : 5
Format                                   : PGS
Muxing mode                              : zlib
Codec ID                                 : S_HDMV/PGS
Codec ID/Info                            : The same subtitle format used on BDs/HD-DVDs
Title                                    : complete
Language                                 : English
Default                                  : No
Forced                                   : No


Download:
Share Online Share OnlineShare OnlineShare Online
 

Kommentare